<?xml version="1.0" standalone="no"?>
<!DOCTYPE svg PUBLIC "-//W3C//DTD SVG 1.1//EN" "http://www.w3.org/Graphics/SVG/1.1/DTD/svg11.dtd" >
<svg xmlns="http://www.w3.org/2000/svg">
<metadata></metadata>
<defs>
<font id="helvetica_neue_condensed_blRg" horiz-adv-x="1064" >
<font-face units-per-em="2048" ascent="1638" descent="-410" />
<missing-glyph horiz-adv-x="532" />
<glyph horiz-adv-x="2048" />
<glyph horiz-adv-x="2048" />
<glyph horiz-adv-x="682" />
<glyph horiz-adv-x="0" />
<glyph unicode="&#x9;" horiz-adv-x="532" />
<glyph unicode="&#xd;" horiz-adv-x="532" />
<glyph horiz-adv-x="0" />
<glyph unicode=" "  horiz-adv-x="532" />
<glyph unicode="&#x09;" horiz-adv-x="532" />
<glyph unicode="&#xa0;" horiz-adv-x="532" />
<glyph unicode="!" horiz-adv-x="643" d="M143 973l39 -549h275l43 549v489h-357v-489zM152 0h344v324h-344v-324z" />
<glyph unicode="&#x22;" horiz-adv-x="985" d="M113 696h286v766h-286v-766zM586 696h286v766h-286v-766z" />
<glyph unicode="#" d="M20 354h150l-45 -354h225l45 354h185l-45 -354h225l45 354h180v238h-151l30 237h180v238h-151l45 354h-225l-45 -354h-183l45 354h-225l-45 -354h-180v-238h149l-28 -237h-181v-238zM426 592l29 237h184l-31 -237h-182z" />
<glyph unicode="$" d="M27 371q0 -195 100 -284.5t295 -109.5v-184h188v184q211 23 319.5 123.5t108.5 309.5q0 133 -46 212.5t-115.5 129t-149.5 77t-149.5 57t-115.5 70.5t-46 113q0 47 28.5 87t90.5 40q55 0 81.5 -46t26.5 -108v-30h356q0 211 -92 314.5t-297 123.5v119h-188v-119 q-375 -61 -375 -444q0 -125 44 -203t110.5 -126t144.5 -78t144.5 -59.5t110.5 -70.5t44 -111q0 -55 -31.5 -94t-91.5 -39q-57 0 -92 35t-35 127v39h-368v-55z" />
<glyph unicode="%" horiz-adv-x="1593" d="M35 1057q0 -106 16.5 -181t54 -122t99 -68.5t151.5 -21.5t151.5 21.5t99.5 68.5t54.5 121.5t16.5 181.5q0 106 -16.5 181t-54.5 122t-99.5 68.5t-151.5 21.5t-151.5 -21.5t-99 -68.5t-54 -122t-16.5 -181zM285 1057q0 72 3 116t10 69.5t21.5 34.5t36.5 9q23 0 37.5 -9 t21.5 -34.5t10 -70t3 -115.5q0 -70 -3 -115t-10 -70.5t-21.5 -35t-37.5 -9.5t-37 9.5t-21 35t-10 70.5t-3 115zM358 -23h226l649 1473h-225zM915 365q0 -106 16.5 -181t54.5 -122.5t99.5 -66t151.5 -18.5t151.5 18.5t99.5 66t54.5 122t16.5 181.5q0 106 -16.5 181t-54.5 122 t-99.5 68.5t-151.5 21.5t-151.5 -21.5t-99.5 -68.5t-54.5 -122t-16.5 -181zM1165 365q0 72 3 115.5t10.5 69t21.5 35t37 9.5t37 -9.5t21.5 -35t10.5 -69.5t3 -115q0 -70 -3 -115t-10.5 -70.5t-21.5 -35t-37 -9.5t-37 9.5t-21.5 35t-10.5 70.5t-3 115z" />
<glyph unicode="&#x26;" horiz-adv-x="1251" d="M6 383q0 -104 36 -181t97.5 -127t142 -74t173.5 -24q57 0 104 8.5t89 21.5t81 33.5t80 45.5l63 -86h406l-197 274q88 86 127 201t45 238h-319q-4 -47 -15.5 -91t-33.5 -81l-166 223q123 78 188.5 173t65.5 202q0 76 -30 138t-84 107.5t-131 70t-173 24.5 q-94 0 -170 -24.5t-130 -70t-84 -108t-30 -137.5q0 -86 42 -171t98 -161q-141 -76 -208 -185.5t-67 -238.5zM362 424q0 33 23 72.5t68 74.5l194 -264q-23 -18 -58.5 -33.5t-68.5 -15.5q-31 0 -58.5 12.5t-50 35t-36 53t-13.5 65.5zM449 1163q0 45 30.5 74t77.5 29t78 -29 t31 -74q0 -33 -27 -76t-94 -104q-51 66 -73.5 106.5t-22.5 73.5z" />
<glyph unicode="'" horiz-adv-x="532" d="M123 696h287v766h-287v-766z" />
<glyph unicode="(" horiz-adv-x="643" d="M61 543q0 -254 78 -478.5t213 -435.5h299q-131 217 -188 442.5t-57 471.5t57 474t188 445h-299q-135 -211 -213 -438t-78 -481z" />
<glyph unicode=")" horiz-adv-x="643" d="M-2 -371h293q135 211 213 435.5t78 478.5t-78 481t-213 438h-293q125 -217 182.5 -445.5t57.5 -473.5q0 -246 -57.5 -471.5t-182.5 -442.5z" />
<glyph unicode="*" horiz-adv-x="831" d="M-2 1081l256 -84l-156 -219l164 -119l154 222l153 -222l164 119l-155 219l262 84l-64 191l-260 -84v274h-201v-274l-260 84z" />
<glyph unicode="+" horiz-adv-x="1228" d="M96 375h375v-375h287v375h375v287h-375v374h-287v-374h-375v-287z" />
<glyph unicode="," horiz-adv-x="532" d="M94 12h131v-18q0 -82 -28.5 -123t-102.5 -49v-176q184 4 264 100t80 291v369h-344v-394z" />
<glyph unicode="-" horiz-adv-x="753" d="M57 436h639v312h-639v-312z" />
<glyph unicode="." horiz-adv-x="532" d="M94 0h344v406h-344v-406z" />
<glyph unicode="/" horiz-adv-x="681" d="M-39 -23h301l465 1514h-307z" />
<glyph unicode="0" d="M39 711q0 -221 29.5 -363.5t90 -225.5t154 -114t219.5 -31q127 0 220.5 31t154 114t90 225t29.5 364q0 219 -29.5 362.5t-90 227t-154 116.5t-220.5 33t-220 -33t-153.5 -116.5t-90 -227t-29.5 -362.5zM420 471v479q0 154 26.5 208t85.5 54t86 -54t27 -208v-479 q0 -154 -26.5 -208t-86.5 -54q-59 0 -85.5 54t-26.5 208z" />
<glyph unicode="1" d="M100 987h275v-987h381v1450h-275q-18 -63 -46.5 -107.5t-74 -70t-109 -36.5t-151.5 -11v-238z" />
<glyph unicode="2" d="M39 0h954v287h-499q10 33 39.5 63.5t54.5 55.5l225 219q82 82 131 182t49 248q0 82 -19.5 153.5t-71.5 126t-142 85t-234 30.5q-150 0 -241.5 -35t-143 -99.5t-70 -155.5t-20.5 -202h357v62q0 61 9 99t24.5 58.5t34 27.5t38.5 7q45 0 71.5 -34.5t26.5 -126.5 q0 -82 -23.5 -132.5t-78.5 -105.5l-254 -258q-125 -129 -171 -265t-46 -290z" />
<glyph unicode="3" d="M39 434q0 -131 28.5 -220t88 -142.5t150.5 -74t214 -20.5q236 0 354.5 108t118.5 353q0 119 -51 206t-178 112v4q57 12 96 43t62.5 70.5t34 86t10.5 89.5q0 96 -21.5 170.5t-74 126t-140.5 78t-221 26.5q-223 0 -336 -107q-113 -104 -119 -331h344q0 115 23.5 157.5 t79.5 42.5q49 0 72.5 -31.5t23.5 -123.5q0 -63 -10 -103.5t-30.5 -63t-51.5 -30.5t-74 -8h-55v-238h96q72 0 105.5 -36.5t33.5 -143.5q0 -68 -4 -111.5t-15 -69.5t-31.5 -35t-53.5 -9q-61 0 -86 53q-12 29 -19.5 70t-7.5 102h-356z" />
<glyph unicode="4" d="M33 270h516v-270h356v270h127v275h-127v876h-413l-459 -864v-287zM319 545l238 483h4v-483h-242z" />
<glyph unicode="5" d="M39 387q0 -197 111.5 -303.5t363.5 -106.5q135 0 226 33t146.5 102.5t79 175t23.5 249.5q0 236 -92 348t-270 112q-82 0 -148.5 -28.5t-120.5 -77.5l17 244h551v286h-842l-33 -805h344q0 66 29 94.5t76 28.5q53 0 80.5 -48t27.5 -171q0 -104 -6 -165.5t-20.5 -94.5 t-34 -42t-47.5 -9q-49 0 -77 37t-28 139v49h-356v-47z" />
<glyph unicode="6" d="M39 588q0 -178 31.5 -296t94 -188.5t157 -98.5t219.5 -28q117 0 207 28t152.5 92.5t94 169t31.5 251.5q0 127 -24.5 212t-70.5 135t-109.5 71.5t-141.5 21.5q-86 0 -152.5 -30.5t-91.5 -83.5h-4v231q0 70 32 103.5t73 33.5q53 0 75 -28q27 -33 29 -107h356 q0 72 -19.5 139.5t-70.5 120t-140 83t-228 30.5q-162 0 -260.5 -47t-151.5 -136t-70.5 -219t-17.5 -298v-162zM432 446q0 139 26.5 188.5t80.5 49.5q59 0 82.5 -49t23.5 -189q0 -139 -26.5 -188t-79.5 -49q-59 0 -83 49t-24 188z" />
<glyph unicode="7" d="M51 1110h584q-90 -123 -159.5 -259t-120 -278.5t-83 -288t-47.5 -284.5h393q10 137 42 287.5t82.5 300t115 290t139.5 259.5v284h-946v-311z" />
<glyph unicode="8" d="M39 430q0 -135 33.5 -223t97 -140.5t154.5 -71t208 -18.5t209.5 18.5t154.5 71t96 140.5t34 223q0 61 -13.5 116.5t-42 99.5t-74.5 75t-112 43v4q66 14 107 44t65.5 70t33.5 86t9 93q0 86 -25.5 157.5t-81.5 123t-144.5 80t-215.5 28.5q-125 0 -214 -28.5t-145 -80 t-81.5 -123t-25.5 -157.5q0 -47 9 -93t33.5 -86t66.5 -70t106 -44v-4q-121 -16 -181.5 -108.5t-60.5 -225.5zM420 424q0 127 29.5 170t82.5 43t83 -43t30 -170q0 -129 -29.5 -172t-83.5 -43q-53 0 -82.5 43t-29.5 172zM434 1038q0 53 8.5 87t21.5 53.5t30.5 26.5t37.5 7 t38 -7t31 -26.5t21.5 -53t8.5 -87.5q0 -106 -29 -141t-70 -35q-20 0 -37.5 7.5t-30.5 26.5t-21.5 54t-8.5 88z" />
<glyph unicode="9" d="M39 903q0 -127 24.5 -212t70.5 -135t109.5 -71.5t141.5 -21.5q86 0 152.5 30.5t91.5 81.5h4v-231q0 -68 -32 -101.5t-73 -33.5q-53 0 -75 29q-27 32 -29 106h-356q0 -74 19 -140.5t69.5 -117.5t139.5 -80t230 -29q162 0 260.5 44.5t151.5 133.5t70.5 219t17.5 298v159 q0 178 -31.5 297t-94 191t-157 101.5t-219.5 29.5q-117 0 -207 -29.5t-152.5 -96.5t-94 -170t-31.5 -251zM420 975q0 139 26.5 188t79.5 49q59 0 83 -49t24 -188t-26.5 -188.5t-80.5 -49.5q-59 0 -82.5 49.5t-23.5 188.5z" />
<glyph unicode=":" horiz-adv-x="532" d="M94 0h344v406h-344v-406zM94 702h344v406h-344v-406z" />
<glyph unicode=";" horiz-adv-x="532" d="M94 12h131v-18q0 -82 -28.5 -123t-102.5 -49v-176q184 4 264 100t80 291v369h-344v-394zM94 702h344v406h-344v-406z" />
<glyph unicode="&#x3c;" horiz-adv-x="1228" d="M96 389l1037 -420v269l-693 280l693 281v274l-1037 -426v-258z" />
<glyph unicode="=" horiz-adv-x="1228" d="M96 145h1037v287h-1037v-287zM96 604h1037v287h-1037v-287z" />
<glyph unicode="&#x3e;" horiz-adv-x="1228" d="M96 -31l1037 420v258l-1037 426v-274l692 -281l-692 -280v-269z" />
<glyph unicode="?" horiz-adv-x="1024" d="M66 999h344q0 82 7 132.5t19.5 77t30.5 35.5t43 9q47 0 69.5 -36.5t22.5 -96.5q0 -37 -9 -85t-50 -95l-121 -137q-51 -59 -69.5 -132t-18.5 -190v-57h332q0 66 9 117t38 84l149 170q53 59 74.5 131.5t21.5 158.5q0 184 -105 295t-329 111q-113 0 -197.5 -25.5 t-144.5 -85.5q-57 -57 -86.5 -151.5t-29.5 -229.5zM328 0h344v324h-344v-324z" />
<glyph unicode="@" horiz-adv-x="1638" d="M59 731q0 -158 59.5 -296t163 -240.5t242 -160t295.5 -57.5q248 0 411 75t273 229h-225q-78 -57 -177.5 -89t-215.5 -32q-131 0 -242 39t-190.5 112.5t-123.5 179t-44 238.5q0 127 40 231.5t113.5 181.5t178 119t233.5 42q117 0 216 -31t172 -89.5t113 -143.5t40 -195 q0 -86 -18.5 -147.5t-46.5 -99.5t-58.5 -56.5t-57.5 -18.5q-35 0 -34 45q0 14 5 43t9 52l82 432h-189l-16 -76q-51 66 -115.5 95.5t-142.5 29.5q-94 0 -171 -39t-131 -104.5t-84 -149.5t-30 -174q0 -80 25.5 -144.5t69.5 -111.5t102.5 -72.5t122.5 -25.5q70 0 126 24.5 t91 65.5h8q6 -43 39 -66.5t80 -23.5q82 0 174 37.5t169 108.5t128 174t51 232q0 141 -62.5 256t-167 195t-241.5 123t-289 43q-158 0 -296 -59.5t-241.5 -163t-163 -241.5t-59.5 -296zM643 709q0 37 15.5 74.5t41 67.5t61.5 48.5t77 18.5q74 0 117.5 -45.5t43.5 -116.5 q0 -41 -15 -79t-43 -66.5t-65.5 -46t-84.5 -17.5q-68 0 -108 48t-40 114z" />
<glyph unicode="A" horiz-adv-x="1138" d="M-20 0l350 1462h479l356 -1462h-405l-39 256h-303l-39 -256h-399zM463 543h213l-105 620h-4z" />
<glyph unicode="B" horiz-adv-x="1175" d="M102 0h576q119 0 203 31.5t136 89t76.5 137.5t24.5 174q0 57 -15.5 113.5t-48 103.5t-83.5 79t-123 38v4q61 12 104 43t71 75t41 98t13 112q0 166 -97 265t-302 99h-576v-1462zM483 274v357h107q53 0 94 -45t41 -131q0 -92 -41 -136.5t-94 -44.5h-107zM483 889v299h92 q59 0 90 -45t31 -107q0 -59 -30.5 -103t-90.5 -44h-92z" />
<glyph unicode="C" horiz-adv-x="1099" d="M47 731q0 -205 21.5 -349t79 -235.5t160 -130.5t261.5 -39q92 0 179.5 19.5t155 76t108.5 155t41 251.5v109h-369q0 -104 -5 -173t-17.5 -110t-35 -58.5t-57.5 -17.5q-43 0 -68.5 22.5t-38.5 80t-17.5 155t-4.5 244.5t4.5 244.5t17.5 155t38.5 80t68.5 22.5q55 0 80 -45 t25 -170v-82h368v92q0 106 -25.5 191.5t-81.5 145.5t-146.5 93t-219.5 33q-147 0 -247.5 -40t-162 -130t-87 -235.5t-25.5 -354.5z" />
<glyph unicode="D" horiz-adv-x="1175" d="M90 0h553q166 0 258 60.5t138 162t56.5 233.5t10.5 275t-10.5 275.5t-56.5 233.5t-138 161.5t-258 60.5h-553v-1462zM471 274v914h76q55 0 88 -15.5t50 -64.5t22.5 -139t5.5 -238q0 -147 -5.5 -237.5t-22.5 -139.5t-50 -64.5t-88 -15.5h-76z" />
<glyph unicode="E" horiz-adv-x="1024" d="M90 0h885v311h-504v291h455v299h-455v250h485v311h-866v-1462z" />
<glyph unicode="F" horiz-adv-x="985" d="M90 0h381v602h455v299h-455v250h485v311h-866v-1462z" />
<glyph unicode="G" horiz-adv-x="1138" d="M66 731q0 -182 11 -323.5t54 -237.5t127 -144.5t229 -48.5q49 0 97.5 6.5t90.5 21.5t75.5 46t52.5 78h4l8 -129h258v795h-491v-258h135q0 -94 -9.5 -154.5t-25.5 -94.5t-40 -46.5t-54 -12.5q-43 0 -68.5 22.5t-39 80t-17.5 155t-4 244.5t4 244.5t17.5 155t41 80 t74.5 22.5q68 0 88 -64q20 -53 21 -170h368q0 133 -34.5 226.5t-96 153t-146.5 86t-186 26.5q-168 0 -274.5 -50t-166.5 -146.5t-81.5 -238t-21.5 -325.5z" />
<glyph unicode="H" horiz-adv-x="1175" d="M90 0h381v602h234v-602h380v1462h-380v-536h-234v536h-381v-1462z" />
<glyph unicode="I" horiz-adv-x="532" d="M76 0h381v1462h-381v-1462z" />
<glyph unicode="J" horiz-adv-x="985" d="M2 444q0 -229 102.5 -348t341.5 -119q236 0 357 108t121 372v1005h-381v-1059q0 -104 -28 -139t-71 -35t-70.5 35t-27.5 139v72h-344v-31z" />
<glyph unicode="K" horiz-adv-x="1138" d="M76 0h381v387l80 123l223 -510h434l-414 823l369 639h-406l-282 -561h-4v561h-381v-1462z" />
<glyph unicode="L" horiz-adv-x="948" d="M90 0h850v311h-469v1151h-381v-1462z" />
<glyph unicode="M" horiz-adv-x="1552" d="M76 0h356v1090h4l203 -1090h274l203 1090h4v-1090h357v1462h-545l-154 -866h-4l-153 866h-545v-1462z" />
<glyph unicode="N" horiz-adv-x="1212" d="M90 0h356v903h5l254 -903h417v1462h-356v-901h-4l-246 901h-426v-1462z" />
<glyph unicode="O" horiz-adv-x="1138" d="M47 731q0 -205 26.5 -349t88 -235.5t162 -130.5t245.5 -39t245.5 39t162 130.5t88.5 235.5t27 349t-27 349.5t-88.5 235.5t-161.5 133t-246 42q-145 0 -245.5 -42t-162 -133t-88 -235.5t-26.5 -349.5zM440 731q0 147 4.5 244.5t17.5 155t38.5 80t68.5 22.5t69 -22.5 t39 -80t17 -154.5t4 -245q0 -147 -4 -244.5t-17 -155t-39 -80t-69 -22.5t-68.5 22.5t-38.5 80t-17.5 155t-4.5 244.5z" />
<glyph unicode="P" horiz-adv-x="1099" d="M76 0h381v557h133q236 0 357.5 113.5t121.5 341.5q0 96 -24.5 178t-77 142.5t-132 95t-188.5 34.5h-571v-1462zM457 831v357h71q147 0 148 -178q0 -92 -38 -135.5t-110 -43.5h-71z" />
<glyph unicode="Q" horiz-adv-x="1138" d="M47 731q0 -205 26.5 -349t88 -235.5t162 -130.5t245.5 -39h37q29 0 52.5 3.5t48.5 7.5l208 -226l230 199l-176 176q66 92 94.5 237.5t28.5 356.5q0 205 -27 349.5t-88.5 235.5t-161.5 133t-246 42q-145 0 -245.5 -42t-162 -133t-88 -235.5t-26.5 -349.5zM440 731 q0 147 4.5 244.5t17.5 155t38.5 80t68.5 22.5t69 -22.5t39 -80t17 -154.5t4 -245q0 -147 -4 -244.5t-17 -155t-39 -80t-69 -22.5t-68.5 22.5t-38.5 80t-17.5 155t-4.5 244.5z" />
<glyph unicode="R" horiz-adv-x="1175" d="M90 0h381v586h100q35 0 58.5 -9.5t39 -33t21.5 -64.5t6 -102v-98q0 -23 1 -59t4.5 -75t10.5 -77.5t21 -67.5h406v20q-18 10 -26.5 21.5t-16.5 24.5q-6 12 -10.5 34.5t-6.5 50t-2 58.5v59v125q0 147 -51 231.5t-188 96.5v4q131 20 190 110.5t59 237.5q0 84 -21.5 155.5 t-69.5 124t-124.5 81t-185.5 28.5h-596v-1462zM471 844v344h74q86 0 124 -39t38 -131q0 -78 -39 -126t-121 -48h-76z" />
<glyph unicode="S" horiz-adv-x="1099" d="M45 383q0 -115 33 -192.5t95.5 -126t153.5 -68t210 -19.5q252 0 385 105.5t133 339.5q0 133 -46 216t-116 134t-149.5 83t-149.5 62.5t-116 72.5t-46 114q0 49 28.5 89t90.5 40q55 0 81.5 -46t26.5 -112v-35h357q0 236 -111.5 343.5t-361.5 107.5q-242 0 -361 -117 t-119 -340q0 -129 44.5 -209t111 -129t144 -79.5t144 -60.5t111 -72t44.5 -113q0 -59 -32 -100.5t-91 -41.5q-55 0 -90 38t-35 132v35h-369v-51z" />
<glyph unicode="T" horiz-adv-x="946" d="M0 1139h283v-1139h381v1139h286v323h-950v-323z" />
<glyph unicode="U" horiz-adv-x="1138" d="M74 504q0 -154 32.5 -256.5t95 -163.5t156 -84t211.5 -23q121 0 213 23t154.5 84t95.5 163.5t33 256.5v958h-381v-1054q0 -106 -30.5 -142.5t-84.5 -36.5q-53 0 -83.5 36t-30.5 143v1054h-381v-958z" />
<glyph unicode="V" d="M-23 1462l310 -1462h491l316 1462h-406l-153 -1102h-5l-153 1102h-400z" />
<glyph unicode="W" horiz-adv-x="1593" d="M0 1462l250 -1462h418l127 983h4l127 -983h417l250 1462h-368l-103 -1011h-4l-149 1011h-344l-138 -1011h-4l-114 1011h-369z" />
<glyph unicode="X" horiz-adv-x="1097" d="M-18 0h419l146 440h4l145 -440h426l-342 741l318 721h-426l-121 -424h-4l-121 424h-426l322 -721z" />
<glyph unicode="Y" d="M-25 1462l367 -887v-575h381v575l373 887h-418l-143 -510h-5l-143 510h-412z" />
<glyph unicode="Z" horiz-adv-x="985" d="M41 0h903v311h-467l467 877v274h-872v-311h428l-459 -877v-274z" />
<glyph unicode="[" horiz-adv-x="643" d="M90 -371h553v258h-209v1317h209v258h-553v-1833z" />
<glyph unicode="\" horiz-adv-x="681" d="M-39 1491l459 -1514h307l-465 1514h-301z" />
<glyph unicode="]" horiz-adv-x="643" d="M0 -113v-258h553v1833h-553v-258h209v-1317h-209z" />
<glyph unicode="^" horiz-adv-x="1228" d="M96 674h287l231 489l232 -489h287l-359 747h-319z" />
<glyph unicode="_" horiz-adv-x="1024" d="M0 -147v-103h1024v103h-1024z" />
<glyph unicode="`" horiz-adv-x="532" d="M2 1509l197 -299h237l-90 299h-344z" />
<glyph unicode="a" horiz-adv-x="1024" d="M29 297q0 -72 16 -131.5t53 -102.5t95.5 -64.5t142.5 -21.5q86 0 152.5 37t97.5 111h4q4 -35 8 -65.5t14 -59.5h357q-23 43 -29 102.5t-6 137.5v540q0 109 -32 177.5t-90 108.5t-139 55.5t-177 15.5q-63 0 -137 -13.5t-137.5 -53.5t-106.5 -112.5t-43 -193.5h319 q2 88 26.5 117.5t78.5 29.5q94 0 94 -102q0 -51 -24.5 -79t-84.5 -42l-145 -35q-88 -20 -147.5 -50t-94.5 -72t-50 -99t-15 -135zM385 340q0 55 16.5 89t59.5 54q41 18 74.5 23.5t50.5 28.5h4v-134q0 -92 -27 -137t-88 -45q-41 0 -65.5 33t-24.5 88z" />
<glyph unicode="b" d="M80 0h356v152h4q35 -92 94.5 -133.5t157.5 -41.5q184 0 258 145.5t74 455.5q0 160 -23.5 267t-66.5 171.5t-106.5 92.5t-143.5 28q-78 0 -140.5 -34t-90.5 -120h-4v479h-369v-1462zM449 553q0 90 4 149.5t15 95.5t31.5 50t51.5 14q33 0 53.5 -14t31.5 -50t15 -95.5 t4 -149.5q0 -88 -4 -147.5t-15 -95.5t-31.5 -50t-53.5 -14q-31 0 -51.5 14t-31.5 50t-15 95.5t-4 147.5z" />
<glyph unicode="c" horiz-adv-x="985" d="M41 535q0 -180 35 -290t97.5 -170.5t150.5 -79t194 -18.5q236 0 340 111q53 59 75.5 151.5t22.5 223.5h-331v-72q0 -104 -28 -143t-79 -39q-31 0 -52.5 15.5t-33.5 54t-17 105.5t-5 169t5 168.5t17 106.5t33.5 55.5t52.5 15.5q59 0 82 -47q12 -27 18.5 -68.5t6.5 -109.5 h331q0 104 -19 189t-67.5 145.5t-129.5 94.5t-203 34q-104 0 -194.5 -20.5t-157 -84t-105.5 -182.5t-39 -315z" />
<glyph unicode="d" d="M41 578q0 -309 73.5 -455t258.5 -146q98 0 157.5 41t94.5 134h4v-152h356v1462h-369v-479h-4q-29 86 -91 120t-140 34q-76 0 -139.5 -29t-107.5 -94.5t-68.5 -172t-24.5 -263.5zM410 553q0 90 4 149.5t15 95.5t31.5 50t53.5 14q31 0 51.5 -14t31.5 -50t15 -95.5t4 -149.5 q0 -88 -4 -147.5t-15 -95.5t-31.5 -50t-51.5 -14q-33 0 -53.5 14t-31.5 50t-15 95.5t-4 147.5z" />
<glyph unicode="e" horiz-adv-x="985" d="M41 553q0 -158 23.5 -268.5t79 -179t145.5 -98.5t223 -30q229 0 329.5 103.5t104.5 308.5h-332q0 -113 -27.5 -152.5t-76.5 -39.5q-39 0 -69.5 29.5t-30.5 119.5v146h546v112q0 152 -27.5 253t-84 163.5t-139 89.5t-193.5 27q-125 0 -214 -32t-146.5 -101.5t-84 -180 t-26.5 -270.5zM410 692v49q0 88 21.5 129t78.5 41q59 0 80.5 -41t21.5 -129v-49h-202z" />
<glyph unicode="f" horiz-adv-x="645" d="M0 860h127v-860h369v860h149v248h-149v68q0 41 26.5 59t61.5 18q20 0 33.5 -1t27.5 -5v232q-43 6 -89 9t-87 3q-96 0 -161.5 -16.5t-105.5 -52.5t-57.5 -93t-17.5 -141v-80h-127v-248z" />
<glyph unicode="g" d="M51 578q0 -172 30 -280t77 -167t104 -79.5t113 -20.5q76 0 145.5 34.5t104.5 131.5h4v-205q0 -47 -10.5 -74t-25.5 -41t-35.5 -18t-41.5 -4q-43 0 -67.5 22.5t-24.5 63.5h-332q2 -94 36 -154.5t92.5 -95.5t136 -48.5t165.5 -13.5q98 0 182 19.5t146.5 64.5t98.5 121 t36 184v1090h-344v-154h-4q-31 100 -98.5 141.5t-145.5 41.5q-80 0 -143.5 -28t-107.5 -92.5t-67.5 -172t-23.5 -266.5zM420 584q0 86 7 140t20.5 85t33 42t45.5 11q25 0 44.5 -11t32.5 -42t19.5 -85t6.5 -140q0 -88 -6.5 -142.5t-19.5 -85t-32.5 -41t-44.5 -10.5 q-27 0 -46 10.5t-32.5 41t-20.5 85t-7 142.5z" />
<glyph unicode="h" d="M74 0h368v731q0 70 20.5 100.5t69.5 30.5t70 -30.5t21 -100.5v-731h368v836q0 86 -23.5 144t-63.5 93t-92 49.5t-110 14.5q-68 0 -138 -32t-118 -120h-4v477h-368v-1462z" />
<glyph unicode="i" horiz-adv-x="528" d="M80 0h369v1108h-369v-1108zM80 1188h369v274h-369v-274z" />
<glyph unicode="j" horiz-adv-x="528" d="M-53 -96v-248q41 -4 80 -7t79 -3q72 0 134.5 9t108.5 39t73 87t27 153v1174h-369v-1126q0 -49 -35 -63.5t-98 -14.5zM80 1188h369v274h-369v-274z" />
<glyph unicode="k" horiz-adv-x="1024" d="M63 0h369v285l62 96l186 -381h393l-346 651l307 457h-393l-205 -383h-4v737h-369v-1462z" />
<glyph unicode="l" horiz-adv-x="528" d="M80 0h369v1462h-369v-1462z" />
<glyph unicode="m" horiz-adv-x="1593" d="M63 0h369v731q0 70 20.5 100.5t69.5 30.5t69.5 -30.5t20.5 -100.5v-731h369v731q0 70 20.5 100.5t69.5 30.5t69.5 -30.5t20.5 -100.5v-731h369v836q0 90 -22.5 147t-61.5 92t-91 48.5t-114 13.5q-86 0 -160.5 -38t-117.5 -132q-35 86 -95.5 128t-175.5 42 q-197 0 -268 -164h-4v135h-357v-1108z" />
<glyph unicode="n" d="M74 0h368v731q0 70 20.5 100.5t69.5 30.5t70 -30.5t21 -100.5v-731h368v836q0 90 -22.5 147t-61.5 92t-91 48.5t-114 13.5q-197 0 -268 -164h-4v135h-356v-1108z" />
<glyph unicode="o" horiz-adv-x="1024" d="M41 555q0 -121 13.5 -226.5t60.5 -184t141 -123t256 -44.5q156 0 249 48.5t142 129.5t64.5 185t15.5 213q0 121 -13.5 226.5t-60.5 185t-141 126t-256 46.5q-156 0 -249 -50.5t-142 -132.5t-64.5 -186t-15.5 -213zM410 553q0 104 4 172t16 106.5t31.5 53t50.5 14.5 t51.5 -14.5t31.5 -53t15 -106.5t4 -172t-4 -171t-15 -105.5t-31.5 -53t-51.5 -14.5t-50.5 14.5t-31.5 53t-16 105.5t-4 171z" />
<glyph unicode="p" d="M80 -354h369v479h4q29 -86 91 -117t140 -31t140.5 26t106.5 90.5t68.5 171t24.5 265.5q0 307 -73.5 457t-258.5 150q-188 0 -252 -181h-4v152h-356v-1462zM449 555q0 90 4 148.5t15 94.5t31.5 50t51.5 14q33 0 53.5 -14t31.5 -50t15 -94.5t4 -148.5t-4 -149.5t-15 -95.5 t-31.5 -50t-53.5 -14q-31 0 -51.5 14t-31.5 50t-15 95.5t-4 149.5z" />
<glyph unicode="q" d="M41 530q0 -160 23.5 -267t66.5 -171.5t106.5 -89.5t143.5 -25q78 0 140.5 31t90.5 117h4v-479h369v1462h-356v-152h-4q-35 92 -94.5 136.5t-157.5 44.5q-184 0 -258 -149.5t-74 -457.5zM410 555q0 90 4 148.5t15 94.5t31.5 50t53.5 14q31 0 51.5 -14t31.5 -50t15 -94.5 t4 -148.5t-4 -149.5t-15 -95.5t-31.5 -50t-51.5 -14q-33 0 -53.5 14t-31.5 50t-15 95.5t-4 149.5z" />
<glyph unicode="r" horiz-adv-x="720" d="M63 0h369v604q0 111 54.5 154t152.5 43q23 0 45.5 -2t46.5 -6v344h-59q-82 0 -149.5 -52.5t-98.5 -152.5h-4v176h-357v-1108z" />
<glyph unicode="s" horiz-adv-x="948" d="M35 344q0 -182 101.5 -274.5t332.5 -92.5q104 0 187 25t139.5 74t87 116.5t30.5 149.5q0 106 -39.5 171t-99 102.5t-128 58t-128 39t-99.5 42t-40 70.5q0 41 26.5 63.5t67.5 22.5q47 0 72.5 -25.5t25.5 -97.5h320q0 348 -416 349q-113 0 -195.5 -27t-137 -74t-81 -109.5 t-26.5 -135.5q0 -104 40 -169t99 -104t128 -61.5t128 -43t99 -47t40 -75.5q0 -45 -31.5 -69.5t-74.5 -24.5q-51 0 -78 39q-14 18 -20.5 46.5t-6.5 61.5h-323z" />
<glyph unicode="t" horiz-adv-x="645" d="M4 860h123v-590q0 -92 17.5 -148t55.5 -85t97 -36t143 -7q47 0 98.5 3t102.5 3v246h-57q-45 0 -66.5 19.5t-21.5 66.5v528h145v248h-145v326h-369v-326h-123v-248z" />
<glyph unicode="u" d="M74 272q0 -88 22.5 -146t61.5 -92t91 -45.5t113 -11.5q199 0 269 158h4v-135h356v1108h-368v-731q0 -70 -20.5 -100.5t-70.5 -30.5q-49 0 -69.5 30.5t-20.5 100.5v731h-368v-836z" />
<glyph unicode="v" horiz-adv-x="948" d="M-6 1108l262 -1108h434l271 1108h-381l-103 -797h-4l-104 797h-375z" />
<glyph unicode="w" horiz-adv-x="1515" d="M0 1108l225 -1108h418l113 784h4l112 -784h418l226 1108h-357l-92 -797h-4l-109 797h-393l-108 -797h-4l-93 797h-356z" />
<glyph unicode="x" horiz-adv-x="985" d="M-2 0h362l136 334l129 -334h368l-293 571l279 537h-369l-127 -297l-110 297h-369l281 -537z" />
<glyph unicode="y" horiz-adv-x="948" d="M0 1108l291 -1045q6 -23 11 -43t5 -32q0 -8 -6 -22.5t-20.5 -28t-38 -23.5t-58.5 -10q-20 0 -41 2t-41 6v-258q47 -4 97.5 -6t109.5 -2q74 0 131.5 14t101.5 51t75.5 99.5t56.5 158.5l297 1139h-369l-106 -748h-4l-113 748h-379z" />
<glyph unicode="z" horiz-adv-x="909" d="M29 0h852v287h-424l413 547v274h-823v-287h379l-397 -534v-287z" />
<glyph unicode="{" horiz-adv-x="681" d="M-4 406q12 0 35.5 -4.5t45 -18.5t37 -41t15.5 -74v-358q0 -141 79 -211t228 -70h246v258h-115q-33 0 -51 12.5t-27.5 31t-12.5 41t-3 36.5v326q0 70 -24.5 109.5t-59.5 61t-72.5 28t-64.5 8.5v4q27 2 64.5 10t72.5 28.5t59.5 56.5t24.5 93v344q0 20 3 43t12.5 41.5 t28 30.5t50.5 12h115v258h-246q-150 0 -228.5 -69.5t-78.5 -210.5v-383q0 -41 -15.5 -64.5t-37 -36t-45 -15.5t-35.5 -3v-274z" />
<glyph unicode="|" horiz-adv-x="454" d="M84 -23h287v1514h-287v-1514z" />
<glyph unicode="}" horiz-adv-x="681" d="M0 -113v-258h246q150 0 228.5 70t78.5 211v377q0 39 15.5 62.5t37 35.5t45 16.5t41.5 4.5v274q-18 0 -41.5 4t-45 18.5t-37 42t-15.5 72.5v365q0 141 -79 210.5t-228 69.5h-246v-258h115q33 0 51 -12t27.5 -30.5t12.5 -41t3 -43.5v-325q0 -70 24.5 -110t59.5 -61.5 t72.5 -27.5t64.5 -8v-4q-27 -2 -64.5 -10.5t-72.5 -29t-59.5 -56t-24.5 -93.5v-344q0 -14 -3 -36.5t-12.5 -41t-28 -31t-50.5 -12.5h-115z" />
<glyph unicode="~" horiz-adv-x="1228" d="M141 555l74 -256q59 145 172 145q70 0 125 -21.5t106.5 -48t101.5 -48t111 -21.5q76 0 139.5 45t116.5 131l-73 256q-43 -68 -86 -106.5t-94 -38.5q-41 0 -93.5 21.5t-109 48t-116.5 48t-118 21.5q-92 0 -156.5 -49t-99.5 -127z" />
<glyph unicode="&#xa1;" horiz-adv-x="643" d="M143 141v-483h357v483l-43 549h-275zM147 791h345v323h-345v-323z" />
<glyph unicode="&#xa2;" d="M76 528q0 -137 22.5 -237.5t69.5 -169.5q92 -126 301 -144v-180h164v180q174 23 258 111q53 59 75.5 151.5t22.5 223.5h-332v-72q0 -104 -27.5 -143t-78.5 -39q-31 0 -51.5 15.5t-32.5 54t-17.5 105.5t-5.5 169t5.5 168.5t17.5 106.5t32.5 55.5t51.5 15.5q59 0 82 -47 q12 -27 18 -69t6 -109h332q0 92 -13 173t-52 141.5t-109 99t-182 49.5v155h-164v-155q-94 -12 -167 -47t-123 -105t-76.5 -181.5t-26.5 -275.5z" />
<glyph unicode="&#xa3;" d="M25 199l84 -209q53 20 108 37.5t113 17.5q47 0 95 -11t95 -22.5t95.5 -23t95.5 -11.5q88 0 171 19.5t158 73.5l-102 229q-78 -41 -126 -60.5t-87 -19.5q-27 0 -54.5 8.5t-55 17.5t-55.5 17t-56 8q-31 0 -68 -14l-4 4q88 66 139.5 140.5t51.5 140.5q0 14 -3.5 28.5 t-7.5 32.5h283v213h-350q-47 86 -74 155.5t-27 123.5q0 47 29 82.5t86 35.5q47 0 82 -33.5t35 -113.5v-33h332q-2 98 -28 176t-81 132.5t-146 82t-225 27.5q-98 0 -181 -23.5t-143.5 -70.5t-94 -118t-33.5 -165q0 -66 24.5 -133.5t63.5 -124.5h-139v-213h219l7 -31.5 t3 -27.5q0 -51 -18.5 -99.5t-50 -92.5t-72.5 -83t-88 -69z" />
<glyph unicode="&#xa5;" d="M-4 1421l250 -614h-154v-213h244l12 -35v-94h-256v-213h256v-252h369v252h256v213h-256v94l12 35h244v213h-154l256 614h-393l-147 -532h-5l-147 532h-387z" />
<glyph unicode="&#xa8;" horiz-adv-x="532" d="M-51 1204h268v287h-268v-287zM315 1204h275v287h-275v-287z" />
<glyph unicode="&#xa9;" horiz-adv-x="1638" d="M59 731q0 -158 59.5 -296t163 -240.5t242 -160t295.5 -57.5q158 0 296 57.5t241.5 160t163 240.5t59.5 296t-59.5 296t-163 241.5t-241.5 163t-296 59.5t-296 -59.5t-241.5 -163t-163 -241.5t-59.5 -296zM322 731q0 264 131 399.5t366 135.5q236 0 367 -135.5t131 -399.5 t-131 -399t-367 -135t-366.5 135t-130.5 399zM436 721q0 -90 30 -168t85 -134.5t132 -89t169 -32.5q66 0 125 20.5t107.5 60.5t81 99t44.5 135h-225q-8 -66 -46 -96.5t-93 -30.5q-92 0 -144.5 68t-52.5 180q0 111 49.5 176.5t141.5 65.5q55 0 93 -30t52 -89h213 q-25 154 -123 230.5t-235 76.5q-92 0 -166 -33.5t-127 -94t-82 -141.5t-29 -173z" />
<glyph unicode="&#xab;" horiz-adv-x="909" d="M100 367l320 -213v323l-172 115l172 115v323l-320 -213v-450zM489 367l320 -213v323l-172 115l172 115v323l-320 -213v-450z" />
<glyph unicode="&#xad;" horiz-adv-x="753" d="M57 436h639v312h-639v-312z" />
<glyph unicode="&#xae;" horiz-adv-x="1638" d="M59 731q0 -158 59.5 -296t163 -240.5t242 -160t295.5 -57.5q158 0 296 57.5t241.5 160t163 240.5t59.5 296t-59.5 296t-163 241.5t-241.5 163t-296 59.5t-296 -59.5t-241.5 -163t-163 -241.5t-59.5 -296zM322 731q0 264 131 399.5t366 135.5q236 0 367 -135.5t131 -399.5 t-131 -399t-367 -135t-366.5 135t-130.5 399zM530 371h189v293h65l164 -293h209l-174 313q25 2 51.5 14.5t49 37t38 63.5t15.5 94q0 145 -93.5 198.5t-257.5 53.5h-256v-774zM719 815v178h100q55 0 86 -21.5t31 -64.5q0 -47 -31 -69.5t-86 -22.5h-100z" />
<glyph unicode="&#xb4;" horiz-adv-x="532" d="M117 1210h237l197 299h-344z" />
<glyph unicode="&#xb8;" horiz-adv-x="532" d="M33 -424q47 -18 110.5 -29.5t122.5 -11.5q123 0 194.5 49t71.5 154q0 84 -57 123t-131 39q-29 0 -59 -11l67 123h-123l-104 -190l51 -43q14 6 28.5 10t31.5 4q27 0 55 -12t28 -53q0 -29 -27.5 -49.5t-74.5 -20.5q-72 0 -139 33z" />
<glyph unicode="&#xbb;" horiz-adv-x="909" d="M100 154l320 213v450l-320 213v-323l172 -115l-172 -115v-323zM489 154l320 213v450l-320 213v-323l173 -115l-173 -115v-323z" />
<glyph unicode="&#xbf;" horiz-adv-x="1024" d="M66 29q0 -178 105 -289t329 -111q113 0 197.5 26t144.5 85q116 117 116 375h-344q0 -82 -7 -129t-19.5 -74t-30.5 -36t-43 -9q-47 0 -69.5 37t-22.5 96q0 31 9 79t50 95l121 137q51 59 69.5 132t18.5 190v57h-332q0 -66 -9 -117t-38 -84l-149 -170q-53 -59 -74.5 -131.5 t-21.5 -158.5zM352 791h344v323h-344v-323z" />
<glyph unicode="&#xc1;" horiz-adv-x="1138" d="M-20 0h399l39 256h303l39 -256h405l-356 1462h-479zM408 1565h237l197 299h-344zM463 543l104 620h4l105 -620h-213z" />
<glyph unicode="&#xc9;" horiz-adv-x="1024" d="M90 0h885v311h-504v291h455v299h-455v250h485v311h-866v-1462zM362 1565h238l197 299h-344z" />
<glyph unicode="&#xcd;" horiz-adv-x="532" d="M76 0h381v1462h-381v-1462zM104 1565h238l197 299h-344z" />
<glyph unicode="&#xd1;" horiz-adv-x="1212" d="M90 0h356v903h5l254 -903h417v1462h-356v-901h-4l-246 901h-426v-1462zM268 1577h176q0 27 12.5 44t35.5 17t48 -9t56 -21.5t66.5 -21.5t76.5 -9q74 0 131.5 66.5t73.5 220.5h-176q-4 -35 -18.5 -48.5t-36.5 -13.5q-23 0 -50.5 10.5t-60.5 20.5q-33 12 -66.5 21.5 t-66.5 9.5q-88 0 -135 -73t-66 -214z" />
<glyph unicode="&#xd3;" horiz-adv-x="1138" d="M47 731q0 -205 26.5 -349t88 -235.5t162 -130.5t245.5 -39t245.5 39t162 130.5t88.5 235.5t27 349t-27 349.5t-88.5 235.5t-161.5 133t-246 42q-145 0 -245.5 -42t-162 -133t-88 -235.5t-26.5 -349.5zM420 1565h237l197 299h-344zM440 731q0 147 4.5 244.5t17.5 155 t38.5 80t68.5 22.5t69 -22.5t39 -80t17 -154.5t4 -245q0 -147 -4 -244.5t-17 -155t-39 -80t-69 -22.5t-68.5 22.5t-38.5 80t-17.5 155t-4.5 244.5z" />
<glyph unicode="&#xda;" horiz-adv-x="1138" d="M74 504q0 -154 32.5 -256.5t95 -163.5t156 -84t211.5 -23q121 0 213 23t154.5 84t95.5 163.5t33 256.5v958h-381v-1054q0 -106 -30.5 -142.5t-84.5 -36.5q-53 0 -83.5 36t-30.5 143v1054h-381v-958zM408 1565h237l197 299h-344z" />
<glyph unicode="&#xdc;" horiz-adv-x="1138" d="M74 504q0 -154 32.5 -256.5t95 -163.5t156 -84t211.5 -23q121 0 213 23t154.5 84t95.5 163.5t33 256.5v958h-381v-1054q0 -106 -30.5 -142.5t-84.5 -36.5q-53 0 -83.5 36t-30.5 143v1054h-381v-958zM233 1559h275v286h-275v-286zM606 1559h275v286h-275v-286z" />
<glyph unicode="&#xe1;" horiz-adv-x="1024" d="M29 297q0 -72 16 -131.5t53 -102.5t95.5 -64.5t142.5 -21.5q86 0 152.5 37t97.5 111h4q4 -35 8 -65.5t14 -59.5h357q-23 43 -29 102.5t-6 137.5v540q0 109 -32 177.5t-90 108.5t-139 55.5t-177 15.5q-63 0 -137 -13.5t-137.5 -53.5t-106.5 -112.5t-43 -193.5h319 q2 88 26.5 117.5t78.5 29.5q94 0 94 -102q0 -51 -24.5 -79t-84.5 -42l-145 -35q-88 -20 -147.5 -50t-94.5 -72t-50 -99t-15 -135zM362 1210h238l197 299h-344zM385 340q0 55 16.5 89t59.5 54q41 18 74.5 23.5t50.5 28.5h4v-134q0 -92 -27 -137t-88 -45q-41 0 -65.5 33 t-24.5 88z" />
<glyph unicode="&#xe9;" horiz-adv-x="985" d="M41 553q0 -158 23.5 -268.5t79 -179t145.5 -98.5t223 -30q229 0 329.5 103.5t104.5 308.5h-332q0 -113 -27.5 -152.5t-76.5 -39.5q-39 0 -69.5 29.5t-30.5 119.5v146h546v112q0 152 -27.5 253t-84 163.5t-139 89.5t-193.5 27q-125 0 -214 -32t-146.5 -101.5t-84 -180 t-26.5 -270.5zM344 1210h238l196 299h-344zM410 692v49q0 88 21.5 129t78.5 41q59 0 80.5 -41t21.5 -129v-49h-202z" />
<glyph unicode="&#xed;" horiz-adv-x="528" d="M80 0h369v1108h-369v-1108zM102 1210h238l197 299h-344z" />
<glyph unicode="&#xf1;" d="M74 0h368v731q0 70 20.5 100.5t69.5 30.5t70 -30.5t21 -100.5v-731h368v836q0 90 -22.5 147t-61.5 92t-91 48.5t-114 13.5q-197 0 -268 -164h-4v135h-356v-1108zM195 1223h176q0 27 12 44t35 17t48.5 -9t56 -21.5t66.5 -21.5t77 -9q74 0 131 66t73 220h-176 q-4 -35 -18 -48t-37 -13t-50.5 10t-60.5 21q-33 12 -66.5 21t-66.5 9q-88 0 -135 -72.5t-65 -213.5z" />
<glyph unicode="&#xf3;" horiz-adv-x="1024" d="M41 555q0 -121 13.5 -226.5t60.5 -184t141 -123t256 -44.5q156 0 249 48.5t142 129.5t64.5 185t15.5 213q0 121 -13.5 226.5t-60.5 185t-141 126t-256 46.5q-156 0 -249 -50.5t-142 -132.5t-64.5 -186t-15.5 -213zM362 1210h238l197 299h-344zM410 553q0 104 4 172 t16 106.5t31.5 53t50.5 14.5t51.5 -14.5t31.5 -53t15 -106.5t4 -172t-4 -171t-15 -105.5t-31.5 -53t-51.5 -14.5t-50.5 14.5t-31.5 53t-16 105.5t-4 171z" />
<glyph unicode="&#xfa;" d="M74 272q0 -88 22.5 -146t61.5 -92t91 -45.5t113 -11.5q199 0 269 158h4v-135h356v1108h-368v-731q0 -70 -20.5 -100.5t-70.5 -30.5q-49 0 -69.5 30.5t-20.5 100.5v731h-368v-836zM383 1210h238l196 299h-344z" />
<glyph unicode="&#xfc;" d="M74 272q0 -88 22.5 -146t61.5 -92t91 -45.5t113 -11.5q199 0 269 158h4v-135h356v1108h-368v-731q0 -70 -20.5 -100.5t-70.5 -30.5q-49 0 -69.5 30.5t-20.5 100.5v731h-368v-836zM209 1204h274v287h-274v-287zM582 1204h274v287h-274v-287z" />
<glyph unicode="&#x2c6;" horiz-adv-x="532" d="M-51 1210h244l73 164l74 -164h250l-127 299h-393z" />
<glyph unicode="&#x2da;" horiz-adv-x="532" d="M39 1440q0 -45 18.5 -87t49 -73t72.5 -49.5t87 -18.5q47 0 88 18.5t72 49.5t49.5 73t18.5 87q0 47 -18.5 88t-49.5 71.5t-72 49t-88 18.5q-45 0 -87 -18.5t-72.5 -49t-49 -71.5t-18.5 -88zM174 1440q0 39 26.5 65.5t65.5 26.5t65.5 -26.5t26.5 -65.5t-26.5 -65.5 t-65.5 -26.5t-65.5 26.5t-26.5 65.5z" />
<glyph unicode="&#x2dc;" horiz-adv-x="532" d="M-66 1223h170q0 27 12.5 44t35.5 17t48 -9t56 -21.5t66.5 -21.5t76.5 -9q74 0 131.5 66t73.5 220h-176q-4 -35 -18.5 -48t-36.5 -13q-23 0 -50.5 10t-60.5 21q-33 12 -66.5 21t-66.5 9q-88 0 -132 -72.5t-63 -213.5z" />
<glyph unicode="&#x2000;" horiz-adv-x="932" />
<glyph unicode="&#x2001;" horiz-adv-x="1864" />
<glyph unicode="&#x2002;" horiz-adv-x="932" />
<glyph unicode="&#x2003;" horiz-adv-x="1864" />
<glyph unicode="&#x2004;" horiz-adv-x="621" />
<glyph unicode="&#x2005;" horiz-adv-x="466" />
<glyph unicode="&#x2006;" horiz-adv-x="310" />
<glyph unicode="&#x2007;" horiz-adv-x="310" />
<glyph unicode="&#x2008;" horiz-adv-x="233" />
<glyph unicode="&#x2009;" horiz-adv-x="372" />
<glyph unicode="&#x200a;" horiz-adv-x="103" />
<glyph unicode="&#x2010;" horiz-adv-x="753" d="M57 436h639v312h-639v-312z" />
<glyph unicode="&#x2011;" horiz-adv-x="753" d="M57 436h639v312h-639v-312z" />
<glyph unicode="&#x2012;" horiz-adv-x="753" d="M57 436h639v312h-639v-312z" />
<glyph unicode="&#x2013;" horiz-adv-x="1024" d="M0 442h1024v299h-1024v-299z" />
<glyph unicode="&#x2014;" horiz-adv-x="2048" d="M0 442h2048v299h-2048v-299z" />
<glyph unicode="&#x2018;" horiz-adv-x="532" d="M94 696h344v394h-131v24q0 82 29 123t102 49v176q-184 -4 -264 -101t-80 -296v-369z" />
<glyph unicode="&#x2019;" horiz-adv-x="532" d="M94 696q184 4 264 101.5t80 296.5v368h-344v-393h131v-25q0 -82 -28.5 -122.5t-102.5 -49.5v-176z" />
<glyph unicode="&#x201a;" horiz-adv-x="532" d="M94 12h131v-18q0 -82 -28.5 -123t-102.5 -49v-176q184 4 264 100t80 291v369h-344v-394z" />
<glyph unicode="&#x201c;" horiz-adv-x="985" d="M86 696h344v394h-131v24q0 82 28.5 123t102.5 49v176q-184 -4 -264 -101t-80 -296v-369zM555 696h344v394h-131v24q0 82 28.5 123t102.5 49v176q-184 -4 -264 -101t-80 -296v-369z" />
<glyph unicode="&#x201d;" horiz-adv-x="985" d="M86 696q184 4 264 101.5t80 296.5v368h-344v-393h131v-25q0 -82 -28.5 -122.5t-102.5 -49.5v-176zM555 696q184 4 264 101.5t80 296.5v368h-344v-393h131v-25q0 -82 -28.5 -122.5t-102.5 -49.5v-176z" />
<glyph unicode="&#x201e;" horiz-adv-x="985" d="M86 12h131v-18q0 -82 -28.5 -123t-102.5 -49v-176q184 4 264 100t80 291v369h-344v-394zM555 12h131v-18q0 -82 -28.5 -123t-102.5 -49v-176q184 4 264 100t80 291v369h-344v-394z" />
<glyph unicode="&#x2026;" horiz-adv-x="2048" d="M170 0h344v406h-344v-406zM852 0h344v406h-344v-406zM1534 0h344v406h-344v-406z" />
<glyph unicode="&#x202f;" horiz-adv-x="372" />
<glyph unicode="&#x2039;" horiz-adv-x="491" d="M86 367l320 -213v323l-173 115l173 115v323l-320 -213v-450z" />
<glyph unicode="&#x203a;" horiz-adv-x="491" d="M86 154l320 213v450l-320 213v-323l172 -115l-172 -115v-323z" />
<glyph unicode="&#x205f;" horiz-adv-x="466" />
<glyph unicode="&#x20ac;" d="M63 469h125q6 -115 30 -207t76 -156.5t137 -97.5t212 -33q98 0 174 18.5t154 78.5v370q-23 -39 -51.5 -79.5t-64.5 -74.5t-79 -55.5t-92 -21.5q-53 0 -82 25.5t-41 64.5t-15 84t-5 84h215l55 201h-274v28v74h290l56 201h-344q0 43 4 86t20.5 76.5t48 55t86.5 21.5 q74 0 121 -48t80 -107l107 323q-88 39 -165 59.5t-173 20.5q-125 0 -212 -31.5t-143.5 -93t-85 -152.5t-37.5 -210h-61l-55 -201h108v-18v-84h-63z" />
<glyph unicode="&#x2122;" horiz-adv-x="2048" d="M20 1249h213v-631h287v631h213v213h-713v-213zM885 618h262v533h4l184 -533h176l185 533h4v-533h262v844h-356l-183 -448l-182 448h-356v-844z" />
<glyph unicode="&#xe000;" horiz-adv-x="1105" d="M0 0v1106h1106v-1106h-1106z" />
</font>
</defs>
</svg>
